请选择 进入手机版 | 继续访问电脑版

影视168论坛

 找回密码
 中文注册
搜索
查看: 1051|回复: 111

[度娘][香港][1996][玉蒲团之玉女心经(完整版)][國粵/簡繁字幕][BluRay][3.61G]

  [复制链接]

该用户从未签到

28

主题

147

帖子

7万

积分

土豪会员

Rank: 7Rank: 7Rank: 7

积分
77000

帅哥勋章新手入门勋章

金币
76853 两
注册时间
2015-1-21
在线时间
903 小时
发表于 2017-12-6 10:25:17 | 显示全部楼层 |阅读模式
             禁止轉載 嚴懲不貸!!!
瀟湘子最新壓制版特別加長多XX鏡頭詳細不必多言 以前收的可以洗版啦



玉蒲團II玉女心經 完整版(1996)Sex & Zen II
Alias: Sex and Zen 2literal translation: The Carnal Prayer Mat II: Virgin Sutra of the HeartAlias: 玉蒲團二之玉女心經
地區: 香港語言: 國語粵語 院線: 嘉禾 片種: 成人 級別: III (香港) Theatrical Run: 05/09/1996 - 06/07/1996票房: HK $8,580,460.00
導演 錢文錡
編劇 西門堅
動作設計 林迪安
監製 王晶(1)

演員 李麗珍(1)...西門柔 舒淇...小翠 徐錦江...西門堅 吳毅將...鐵中棠 駱達華...花道 黃一飛(1)...道長 張露(2)   曾燕   方婷(2)   雷達   洪曉芸   李健仁   王肇強(1)   曾玉泉  

出品公司 嘉禾(香港)有限公司 晶藝電影事業有限公司 發行公司 嘉禾(香港)有限公司 (香港) 製片 劉寶賢 馮志偉(1) 錄音 聲藝錄音室 美術 卓文耀 策劃 李兆基 化妝 周文娟 蔡彥菁 道具 許龍華 攝影 張文寶 剪接 馬高 服裝 利碧君 文潤楣 副導演 張少堅 鄭保瑞 髮型 仇小梅 配樂 安格斯 音樂領域

  1. General
  2. Unique ID                   : 184655006895200614875738464323581682385 (0x8AEB42BE497B97F5AA57122D3CEEA2D1)
  3. Complete name               : D:\玉蒲團二之玉女心經(完整版).1996.BDRip.2AC3.HKFACT.mkv
  4. Format                      : Matroska
  5. Format version              : Version 4 / Version 2
  6. File size                   : 3.61 GiB
  7. Duration                    : 1 h 29 min
  8. Overall bit rate            : 5 771 kb/s
  9. Encoded date                : UTC 2017-12-05 15:45:03
  10. Writing application         : mkvmerge v18.0.0 ('Apricity') 32-bit
  11. Writing library             : libebml v1.3.5 + libmatroska v1.4.8

  12. Video
  13. ID                          : 1
  14. Format                      : AVC
  15. Format/Info                 : Advanced Video Codec
  16. Format profile              : High@L4.1
  17. Format settings, CABAC      : Yes
  18. Format settings, ReFrames   : 4 frames
  19. Codec ID                    : V_MPEG4/ISO/AVC
  20. Duration                    : 1 h 29 min
  21. Bit rate                    : 5 000 kb/s
  22. Width                       : 1 920 pixels
  23. Height                      : 1 080 pixels
  24. Display aspect ratio        : 16:9
  25. Frame rate mode             : Constant
  26. Frame rate                  : 24.000 FPS
  27. Color space                 : YUV
  28. Chroma subsampling          : 4:2:0
  29. Bit depth                   : 8 bits
  30. Scan type                   : Progressive
  31. Bits/(Pixel*Frame)          : 0.100
  32. Stream size                 : 3.13 GiB (87%)
  33. Writing library             : x264 core 152 r2851 ba24899
  34. Encoding settings           : cabac=1 / ref=4 / deblock=1:-3:-3 / analyse=0x3:0x113 / me=umh / subme=9 / psy=1 / psy_rd=1.00:1.00 / mixed_ref=1 / me_range=32 / chroma_me=1 / trellis=2 / 8x8dct=1 / cqm=0 / deadzone=21,11 / fast_pskip=1 / chroma_qp_offset=-6 / threads=9 / lookahead_threads=1 / sliced_threads=0 / nr=0 / decimate=1 / interlaced=0 / bluray_compat=0 / constrained_intra=0 / bframes=3 / b_pyramid=2 / b_adapt=2 / b_bias=0 / direct=3 / weightb=0 / open_gop=1 / weightp=2 / keyint=240 / keyint_min=24 / scenecut=40 / intra_refresh=0 / rc_lookahead=50 / rc=2pass / mbtree=1 / bitrate=5000 / ratetol=4.0 / qcomp=0.60 / qpmin=10 / qpmax=69 / qpstep=4 / cplxblur=20.0 / qblur=0.5 / vbv_maxrate=50000 / vbv_bufsize=50000 / nal_hrd=none / filler=0 / ip_ratio=1.40 / aq=1:1.00
  35. Language                    : Chinese
  36. Default                     : Yes
  37. Forced                      : No

  38. Audio #1
  39. ID                          : 2
  40. Format                      : AC-3
  41. Format/Info                 : Audio Coding 3
  42. Mode extension              : CM (complete main)
  43. Format settings, Endianness : Big
  44. Codec ID                    : A_AC3
  45. Duration                    : 1 h 29 min
  46. Bit rate mode               : Constant
  47. Bit rate                    : 384 kb/s
  48. Channel(s)                  : 2 channels
  49. Channel positions           : Front: L R
  50. Sampling rate               : 48.0 kHz
  51. Frame rate                  : 31.250 FPS (1536 spf)
  52. Compression mode            : Lossy
  53. Stream size                 : 246 MiB (7%)
  54. Title                       : 國語
  55. Language                    : Chinese
  56. Default                     : Yes
  57. Forced                      : No

  58. Audio #2
  59. ID                          : 3
  60. Format                      : AC-3
  61. Format/Info                 : Audio Coding 3
  62. Mode extension              : CM (complete main)
  63. Format settings, Endianness : Big
  64. Codec ID                    : A_AC3
  65. Duration                    : 1 h 29 min
  66. Bit rate mode               : Constant
  67. Bit rate                    : 384 kb/s
  68. Channel(s)                  : 2 channels
  69. Channel positions           : Front: L R
  70. Sampling rate               : 48.0 kHz
  71. Frame rate                  : 31.250 FPS (1536 spf)
  72. Compression mode            : Lossy
  73. Stream size                 : 246 MiB (7%)
  74. Title                       : 粵語
  75. Language                    : Chinese
  76. Default                     : No
  77. Forced                      : No

  78. Text #1
  79. ID                          : 4
  80. Format                      : UTF-8
  81. Codec ID                    : S_TEXT/UTF8
  82. Codec ID/Info               : UTF-8 Plain Text
  83. Duration                    : 1 h 27 min
  84. Bit rate                    : 48 b/s
  85. Count of elements           : 1218
  86. Stream size                 : 30.9 KiB (0%)
  87. Title                       : 繁體中文
  88. Language                    : Chinese
  89. Default                     : Yes
  90. Forced                      : No

  91. Text #2
  92. ID                          : 5
  93. Format                      : UTF-8
  94. Codec ID                    : S_TEXT/UTF8
  95. Codec ID/Info               : UTF-8 Plain Text
  96. Duration                    : 1 h 27 min
  97. Bit rate             [backcolor=Red] [/backcolor]      : 48 b/s
  98. Count of elements           : 1218
  99. Stream size                 : 30.9 KiB (0%)
  100. Title                       : 簡體中文
  101. Language                    : Chinese
  102. Default                     : No
  103. Forced                      : No

复制代码






詳細內容請回復下載PDF文件
游客,如果您要查看本帖隐藏内容请回复


购买主题 已有 43 人购买  本主题需向作者支付 2000 两金币 才能浏览
  • TA的每日心情
    开心
    前天 08:10
  • 签到天数: 570 天

    [LV.9]以坛为家II

    31

    主题

    1014

    帖子

    5万

    积分

    土豪会员

    Rank: 7Rank: 7Rank: 7

    积分
    52474

    新手入门勋章帅哥勋章

    金币
    51430 两
    注册时间
    2015-9-15
    在线时间
    906 小时
    发表于 2017-12-6 10:30:41 | 显示全部楼层
    支持大神发片,箱子又洗版了,我第一个支持。
  • TA的每日心情
    慵懒
    昨天 13:49
  • 签到天数: 517 天

    [LV.9]以坛为家II

    92

    主题

    2113

    帖子

    10万

    积分

    土豪会员

    Rank: 7Rank: 7Rank: 7

    积分
    102193

    新手入门勋章帅哥勋章

    金币
    100079 两
    注册时间
    2015-7-13
    在线时间
    993 小时
    发表于 2017-12-6 10:45:05 | 显示全部楼层
    还是不够苹果快呀,坐板凳去~
  • TA的每日心情
    开心
    1 小时前
  • 签到天数: 40 天

    [LV.5]常住居民I

    0

    主题

    89

    帖子

    1503

    积分

    注册会员

    Rank: 2

    积分
    1503
    金币
    1414 两
    注册时间
    2017-10-9
    在线时间
    40 小时
    发表于 2017-12-6 10:51:00 | 显示全部楼层
    111111111111111111111
  • TA的每日心情
    奋斗
    7 天前
  • 签到天数: 14 天

    [LV.3]偶尔看看II

    16

    主题

    311

    帖子

    2万

    积分

    土豪会员

    Rank: 7Rank: 7Rank: 7

    积分
    29844
    金币
    29533 两
    注册时间
    2013-9-12
    在线时间
    1328 小时
    发表于 2017-12-6 10:55:13 | 显示全部楼层
    回复看看图片
  • TA的每日心情
    开心
    25 分钟前
  • 签到天数: 418 天

    [LV.9]以坛为家II

    101

    主题

    1180

    帖子

    45万

    积分

    土豪会员

    Rank: 7Rank: 7Rank: 7

    积分
    458129
    金币
    456949 两
    注册时间
    2016-10-20
    在线时间
    1944 小时
    发表于 2017-12-6 11:07:07 | 显示全部楼层
    這部要收下,謝謝分享。
  • TA的每日心情
    开心
    2015-11-21 23:23
  • 签到天数: 1 天

    [LV.1]初来乍到

    28

    主题

    882

    帖子

    12万

    积分

    土豪会员

    Rank: 7Rank: 7Rank: 7

    积分
    128553
    金币
    127665 两
    注册时间
    2013-10-20
    在线时间
    1565 小时
    发表于 2017-12-6 11:27:11 | 显示全部楼层
    看看最新压制版本
  • TA的每日心情
    无聊
    昨天 12:14
  • 签到天数: 757 天

    [LV.10]以坛为家III

    30

    主题

    1206

    帖子

    5万

    积分

    土豪会员

    Rank: 7Rank: 7Rank: 7

    积分
    55001
    金币
    53794 两
    注册时间
    2013-12-13
    在线时间
    1149 小时
    发表于 2017-12-6 11:28:28 | 显示全部楼层
    看看加长什么了
  • TA的每日心情

    昨天 01:16
  • 签到天数: 449 天

    [LV.9]以坛为家II

    46

    主题

    1219

    帖子

    1万

    积分

    土豪会员

    Rank: 7Rank: 7Rank: 7

    积分
    16825

    新手入门勋章帅哥勋章

    金币
    15606 两
    注册时间
    2014-3-29
    在线时间
    1475 小时
    发表于 2017-12-6 11:46:41 | 显示全部楼层
    回复看下图片
  • TA的每日心情
    开心
    半小时前
  • 签到天数: 483 天

    [LV.9]以坛为家II

    0

    主题

    2703

    帖子

    3万

    积分

    土豪会员

    Rank: 7Rank: 7Rank: 7

    积分
    31287
    金币
    28584 两
    注册时间
    2016-7-4
    在线时间
    299 小时
    发表于 2017-12-6 12:08:17 | 显示全部楼层
    感谢楼主分享
    您需要登录后才可以回帖 登录 | 中文注册

    本版积分规则

    影视168论坛·免责声明
    本站仅供网友自由讨论使用,所有个人言论均不代表本站立场,与本站立场无关,本站不会对其內容负任何责任。
    本站内容均经过严格审查筛选,内容健康,如发现违反国家法律法规的內容,请立即联系我们,我们立刻从网站上删除,并致以最深的歉意。
    广而告之:【影视168论坛】已经安全运行
    ©影视168论坛  |  欢迎光临:影视168论坛     
    快速回复 返回顶部 返回列表