请选择 进入手机版 | 继续访问电脑版

影视168论坛

 找回密码
 中文注册
搜索
查看: 367|回复: 12

[度娘][中国][1993][方世玉(106分钟)][国粤/无字][BluRay][5.4G]

[复制链接]
  • TA的每日心情
    开心
    2016-4-13 07:12
  • 签到天数: 15 天

    [LV.4]偶尔看看III

    72

    主题

    1178

    帖子

    22万

    积分

    土豪会员

    Rank: 7Rank: 7Rank: 7

    积分
    229575
    金币
    228397 两
    注册时间
    2016-3-27
    在线时间
    455 小时
    发表于 7 天前 | 显示全部楼层 |阅读模式
    小竹子大神压制  授权代为发布  禁转以盈利性为目的的论坛



    ◎译  名 功夫皇帝方世玉
    ◎片  名 方世玉
    ◎年  代 1993
    ◎产  地 香港
    ◎类  别 喜剧/动作/武侠/古装
    ◎语  言 粤语
    ◎上映日期 1993-03-04(香港)
    ◎IMDb评分  7.2/10 from 6,444 users
    ◎IMDb链接  http://www.imdb.com/title/tt0106936/
    ◎豆瓣评分 7.7/10 from 66,361 users
    ◎豆瓣链接 https://movie.douban.com/subject/1297763/
    ◎片  长 106 分钟
    ◎导  演 元奎 Corey Yuen
    ◎主  演 李连杰 Jet Li
          萧芳芳 Josephine Siao
          陈松勇 Sung Young Chen
          李嘉欣 Michelle Reis
          胡慧中 Sibelle Hu
          赵文卓 Man Cheuk Chiu
          朱江 Kong Chu
          郑少秋 Adam Cheng
          郭涛 Tao Guo

    ◎简  介

      方世玉(李连杰 饰)原是城中纨绔子弟,好打抱不平。一日,他闻说外省富豪雷老虎在次设下擂台,比武招亲,又听讲雷小姐貌美如花,遂前往比武招亲。当方世玉过赢准备打赢未来岳母李小环时,一阵风吹过,将台上坐着的小姐的盖头吹了起来,他发现竟是一名丑女时,马上故意认输,溜之大吉。
      方世玉的母亲苗翠花(萧芳芳 饰)听说儿子擂台上败下阵,自觉颜面无光,于是化身方世玉的哥哥方大玉前往打擂,一举打败了李小环。岂料雷老虎当晚即派人来接方大玉成亲。世玉为救母亲,只有代替母亲前往雷家成亲。
      母子两计划新婚之后趁回门的时候一起出逃,岂料方世玉的父亲方德回来了!

    [attach]78354[/attach]

    运用素材  美版蓝光+台版LD+法版DVD


    1. General
    2. Unique ID                      : 232233294755420051793046723067830404447 (0xAEB68171F8B43012B6E9366AAF7D055F)
    3. Complete name                  : D:\Temporary storage area\方世玉.1993.BluRay.DD2.0.106min.小竹子.mkv
    4. Format                         : Matroska
    5. Format version                 : Version 4 / Version 2
    6. File size                      : 5.40 GiB
    7. Duration                       : 1 h 46 min
    8. Overall bit rate               : 7 276 kb/s
    9. Encoded date                   : UTC 2017-11-12 17:22:49
    10. Writing application            : mkvmerge v7.7.0 ('Six Voices') 32bit built on Feb 28 2015 23:23:00
    11. Writing library                : libebml v1.3.1 + libmatroska v1.4.2

    12. Video
    13. ID                             : 1
    14. Format                         : AVC
    15. Format/Info                    : Advanced Video Codec
    16. Format profile                 : High 10@L4
    17. Format settings, CABAC         : Yes
    18. Format settings, ReFrames      : 8 frames
    19. Codec ID                       : V_MPEG4/ISO/AVC
    20. Duration                       : 1 h 46 min
    21. Bit rate                       : 6 890 kb/s
    22. Width                          : 1 280 pixels
    23. Height                         : 720 pixels
    24. Display aspect ratio           : 16:9
    25. Frame rate mode                : Constant
    26. Frame rate                     : 23.976 (24000/1001) FPS
    27. Color space                    : YUV
    28. Chroma subsampling             : 4:2:0
    29. Bit depth                      : 10 bits
    30. Scan type                      : Progressive
    31. Bits/(Pixel*Frame)             : 0.312
    32. Stream size                    : 5.11 GiB (95%)
    33. Writing library                : x264 core 142 r2431+42 c69a006 tMod [10-bit@all X86_64]
    34. Encoding settings              : cabac=1 / ref=8 / deblock=1:0:0 / analyse=0x3:0x113 / me=tesa / subme=10 / psy=1 / fade_compensate=0.00 / psy_rd=1.00:0.00 / mixed_ref=1 / me_range=24 / chroma_me=1 / trellis=2 / 8x8dct=1 / cqm=0 / deadzone=21,11 / fast_pskip=0 / chroma_qp_offset=-3 / threads=6 / lookahead_threads=1 / sliced_threads=0 / nr=0 / decimate=0 / interlaced=0 / bluray_compat=0 / constrained_intra=0 / fgo=0 / bframes=12 / b_pyramid=2 / b_adapt=2 / b_bias=0 / direct=3 / weightb=1 / open_gop=0 / weightp=2 / keyint=720 / keyint_min=1 / scenecut=40 / intra_refresh=0 / rc=crf / mbtree=0 / crf=17.3000 / qcomp=0.60 / qpmin=0:0:0 / qpmax=81:81:81 / qpstep=4 / ip_ratio=1.40 / pb_ratio=1.30 / aq=1:0.80 / aq-sensitivity=10.00 / aq-factor=1.00:1.00:1.00 / aq2=0 / aq3=0
    35. Language                       : Chinese
    36. Default                        : Yes
    37. Forced                         : No
    38. Color range                    : Limited
    39. Matrix coefficients            : BT.709

    40. Audio #1
    41. ID                             : 2
    42. Format                         : AC-3
    43. Format/Info                    : Audio Coding 3
    44. Mode extension                 : CM (complete main)
    45. Format settings, Endianness    : Big
    46. Codec ID                       : A_AC3
    47. Duration                       : 1 h 46 min
    48. Bit rate mode                  : Constant
    49. Bit rate                       : 192 kb/s
    50. Channel(s)                     : 2 channels
    51. Channel positions              : Front: L R
    52. Sampling rate                  : 48.0 kHz
    53. Frame rate                     : 31.250 FPS (1536 spf)
    54. Compression mode               : Lossy
    55. Stream size                    : 146 MiB (3%)
    56. Language                       : Chinese
    57. Default                        : No
    58. Forced                         : No

    59. Audio #2
    60. ID                             : 3
    61. Format                         : AC-3
    62. Format/Info                    : Audio Coding 3
    63. Mode extension                 : CM (complete main)
    64. Format settings, Endianness    : Big
    65. Codec ID                       : A_AC3
    66. Duration                       : 1 h 46 min
    67. Bit rate mode                  : Constant
    68. Bit rate                       : 192 kb/s
    69. Channel(s)                     : 2 channels
    70. Channel positions              : Front: L R
    71. Sampling rate                  : 48.0 kHz
    72. Frame rate                     : 31.250 FPS (1536 spf)
    73. Compression mode               : Lossy
    74. Stream size                    : 146 MiB (3%)
    75. Language                       : Chinese
    76. Default                        : No
    77. Forced                         : No

    复制代码

    购买主题 已有 7 人购买  本主题需向作者支付 500 两金币 才能浏览
  • TA的每日心情
    擦汗
    2017-12-1 23:12
  • 签到天数: 8 天

    [LV.3]偶尔看看II

    30

    主题

    1173

    帖子

    24万

    积分

    土豪会员

    Rank: 7Rank: 7Rank: 7

    积分
    242141
    金币
    240968 两
    注册时间
    2013-11-6
    在线时间
    478 小时
    发表于 7 天前 | 显示全部楼层
    先来座一座吧!第一楼
  • TA的每日心情
    擦汗
    2017-12-1 23:12
  • 签到天数: 8 天

    [LV.3]偶尔看看II

    30

    主题

    1173

    帖子

    24万

    积分

    土豪会员

    Rank: 7Rank: 7Rank: 7

    积分
    242141
    金币
    240968 两
    注册时间
    2013-11-6
    在线时间
    478 小时
    发表于 7 天前 | 显示全部楼层
    地址失效了!

    点评

    没失效吧 我这边可以打开  发表于 7 天前
  • TA的每日心情
    开心
    27 分钟前
  • 签到天数: 510 天

    [LV.9]以坛为家II

    28

    主题

    813

    帖子

    2万

    积分

    土豪会员

    Rank: 7Rank: 7Rank: 7

    积分
    21177
    金币
    20364 两
    注册时间
    2013-4-10
    在线时间
    403 小时
    发表于 7 天前 | 显示全部楼层
    完整版难道?

    点评

    目前是最完整的了  发表于 7 天前
  • TA的每日心情
    开心
    半小时前
  • 签到天数: 483 天

    [LV.9]以坛为家II

    0

    主题

    2703

    帖子

    3万

    积分

    土豪会员

    Rank: 7Rank: 7Rank: 7

    积分
    31287
    金币
    28584 两
    注册时间
    2016-7-4
    在线时间
    299 小时
    发表于 7 天前 | 显示全部楼层
    感谢楼主分享
  • TA的每日心情
    擦汗
    2017-12-2 16:34
  • 签到天数: 560 天

    [LV.9]以坛为家II

    147

    主题

    2492

    帖子

    11万

    积分

    土豪会员

    Rank: 7Rank: 7Rank: 7

    积分
    113640
    金币
    111148 两
    注册时间
    2014-12-31
    在线时间
    2172 小时
    发表于 7 天前 | 显示全部楼层
    楼主的帖子实在是写得太好了,不觉明厉啊!
  • TA的每日心情
    开心
    7 小时前
  • 签到天数: 659 天

    [LV.9]以坛为家II

    29

    主题

    1285

    帖子

    6万

    积分

    土豪会员

    Rank: 7Rank: 7Rank: 7

    积分
    60404
    金币
    59119 两
    注册时间
    2013-10-9
    在线时间
    1094 小时
    发表于 6 天前 | 显示全部楼层
    这部DVD原盘的国语版可以发一下吗
  • TA的每日心情

    前天 09:26
  • 签到天数: 409 天

    [LV.9]以坛为家II

    21

    主题

    2114

    帖子

    11万

    积分

    土豪会员

    Rank: 7Rank: 7Rank: 7

    积分
    118812

    帅哥勋章新手入门勋章

    金币
    116698 两
    注册时间
    2016-4-11
    在线时间
    877 小时
    发表于 6 天前 | 显示全部楼层
    看看大神版本
  • TA的每日心情
    开心
    前天 23:26
  • 签到天数: 573 天

    [LV.9]以坛为家II

    8

    主题

    776

    帖子

    2949

    积分

    中级会员

    Rank: 3Rank: 3

    积分
    2949
    金币
    2173 两
    注册时间
    2015-6-1
    在线时间
    220 小时
    发表于 4 天前 | 显示全部楼层
    好东西   
  • TA的每日心情
    慵懒
    昨天 13:49
  • 签到天数: 517 天

    [LV.9]以坛为家II

    92

    主题

    2113

    帖子

    10万

    积分

    土豪会员

    Rank: 7Rank: 7Rank: 7

    积分
    102193

    新手入门勋章帅哥勋章

    金币
    100079 两
    注册时间
    2015-7-13
    在线时间
    993 小时
    发表于 4 天前 | 显示全部楼层
    谢谢分享这部
    您需要登录后才可以回帖 登录 | 中文注册

    本版积分规则

    影视168论坛·免责声明
    本站仅供网友自由讨论使用,所有个人言论均不代表本站立场,与本站立场无关,本站不会对其內容负任何责任。
    本站内容均经过严格审查筛选,内容健康,如发现违反国家法律法规的內容,请立即联系我们,我们立刻从网站上删除,并致以最深的歉意。
    广而告之:【影视168论坛】已经安全运行
    ©影视168论坛  |  欢迎光临:影视168论坛     
    快速回复 返回顶部 返回列表