请选择 进入手机版 | 继续访问电脑版

影视168论坛

 找回密码
 中文注册
搜索
查看: 398|回复: 13

[度娘][香港][1993][夏日福星(103分钟)][国粤/简繁][BluRay][3.59G]

[复制链接]
  • TA的每日心情
    开心
    2016-4-13 07:12
  • 签到天数: 15 天

    [LV.4]偶尔看看III

    72

    主题

    1178

    帖子

    22万

    积分

    土豪会员

    Rank: 7Rank: 7Rank: 7

    积分
    229575
    金币
    228397 两
    注册时间
    2016-3-27
    在线时间
    455 小时
    发表于 7 天前 | 显示全部楼层 |阅读模式
    小竹子大神压制  授权代为发布  禁转以盈利性为目的的论坛



    ◎译  名 七福星
    ◎片  名 夏日福星
    ◎年  代 1985
    ◎产  地 香港
    ◎类  别 动作/喜剧
    ◎语  言 粤语
    ◎上映日期 1985-08-15
    ◎IMDb评分  6.5/10 from 2,804 users
    ◎IMDb链接  http://www.imdb.com/title/tt0090342/
    ◎豆瓣评分 7.1/10 from 9,313 users
    ◎豆瓣链接 https://movie.douban.com/subject/1303717/
    ◎片  长 103 分钟
    ◎导  演 洪金宝 Sammo Hung Kam-Bo
    ◎主  演 洪金宝 Sammo Hung Kam-Bo
          吴耀汉 Richard Ng
          冯淬帆 Stanley Fung
          苗侨伟 Kiu Wai Miu
          曾志伟 Eric Tsang
          胡慧中 Sibelle Hu
          成龙 Jackie Chan
          元彪 Biao Yuen
          刘德华 Andy Lau
          岑建勋 John Sham
          关之琳 Rosamund Kwan
          陈友 Anthony Chan
          午马 Wu Ma
          仓田保昭 Yasuaki Kurata
          吴君如 Sandra Ng
          惠英红 Kara Hui
          杨紫琼 Michelle Yeoh
          曹达华 Tat-wah Cho
          理查德·诺顿 Richard Norton
          林正英 Ching-Ying Lam
          楼南光 Billy Lau
          钟发 Fat Chung
          白彪 Jason Pai Piao
          秦祥林 Charlie Chin
          田俊 James Tien Chun
          马斯晨 Season Ma
          吴夏萍 Ha Ping Ng
          刘家荣 Chia Yung Liu
          黄锦燊 Melvin Wong
          戚美珍 Jaime Mei Chun Chik
          高飞 Phillip Ko
          狄威 Dick Wei
          林子祥 George Lam
          叶德娴 Deanie Ip
          张坚庭 Alfred Cheung
          姜大卫 David Chiang
          王晶 Jing Wong
          陈百祥 Pak-cheung Chan
          陈欣健 Philip Chan
          李赛凤 Moon Lee
          王小凤 Pauline Wong
          钱小豪 Siu-hou Chin
          杨雪仪 Cher Yeung
          钱慧仪 Winnie Chin
          杨群 Peter Yang Kwan
          刘天兰 Tina Liu
          惠天赐 Austin Wai
          何家劲 Kenny Ho
          孟海 Hoi Mang
          林威 Wai Lam
          太保 Po Tai
          梁家仁 Ka-Yan Leung

    ◎简  介

      鹧鸪菜(洪金宝 饰)、犀牛皮(冯淬帆 饰)、大山地(吴耀汉 饰)、罗汉果(曾志伟)、花旗参(秦祥林 饰)、大力丸(成龙 饰)、巴巴拉(胡慧中 饰)和维奇(元彪 饰)等警察兄弟一起放大假出外旅游,岂料他们刚刚到达目的地就被上司通知马上回港执行任务。
      原来,香港富商冯先生遭杀手杀害,他的女儿冯小姐(关之琳 饰)和冯先生的好友刘先生现在随时都有生命危险。于是,为了保护两人,大力丸和助手贴身保护刘先生;而年轻漂亮的冯小姐则住到巴巴拉的家由犀牛皮等人保护,众人都想和这位漂亮开放到冯小姐搭上关系;维奇和巴巴拉住入冯家引诱杀手上钩。夏日里,一连串爆笑惊险的场面上演了!

    [attach]78355[/attach]

    此片BluRay无删减性 区别为双开头



    1. General
    2. Unique ID                      : 188659799167939531481604169990977381747 (0x8DEE8E3F34FB670A99B33656CBEC6573)
    3. Complete name                  : D:\Temporary storage area\夏日福星.1985.BluRay.DD2.0.103min-小竹子.mkv
    4. Format                         : Matroska
    5. Format version                 : Version 4 / Version 2
    6. File size                      : 3.59 GiB
    7. Duration                       : 1 h 43 min
    8. Overall bit rate               : 4 982 kb/s
    9. Encoded date                   : UTC 2017-07-25 15:16:20
    10. Writing application            : mkvmerge v7.7.0 ('Six Voices') 32bit built on Feb 28 2015 23:23:00
    11. Writing library                : libebml v1.3.1 + libmatroska v1.4.2

    12. Video
    13. ID                             : 1
    14. Format                         : AVC
    15. Format/Info                    : Advanced Video Codec
    16. Format profile                 : High 10@L5.1
    17. Format settings, CABAC         : Yes
    18. Format settings, ReFrames      : 8 frames
    19. Codec ID                       : V_MPEG4/ISO/AVC
    20. Duration                       : 1 h 43 min
    21. Bit rate                       : 4 577 kb/s
    22. Width                          : 1 280 pixels
    23. Height                         : 680 pixels
    24. Display aspect ratio           : 1.882
    25. Frame rate mode                : Constant
    26. Frame rate                     : 23.976 (24000/1001) FPS
    27. Color space                    : YUV
    28. Chroma subsampling             : 4:2:0
    29. Bit depth                      : 10 bits
    30. Scan type                      : Progressive
    31. Bits/(Pixel*Frame)             : 0.219
    32. Stream size                    : 3.30 GiB (92%)
    33. Title                          : 小竹子
    34. Writing library                : x264 core 144 r2525+52 a9a0b2b xiaowan [10-bit@all X86_64]
    35. Encoding settings              : cabac=1 / ref=8 / deblock=1:0:0 / analyse=0x3:0x113 / me=tesa / subme=10 / psy=1 / fade_compensate=0.00 / psy_rd=1.00:0.00 / mixed_ref=1 / me_range=24 / chroma_me=1 / trellis=2 / 8x8dct=1 / cqm=0 / deadzone=21,11 / fast_pskip=0 / chroma_qp_offset=-3 / threads=8 / lookahead_threads=2 / sliced_threads=0 / nr=0 / decimate=0 / interlaced=0 / bluray_compat=0 / constrained_intra=0 / fgo=0 / bframes=12 / b_pyramid=2 / b_adapt=2 / b_bias=0 / direct=3 / weightb=1 / open_gop=0 / weightp=2 / keyint=720 / keyint_min=1 / scenecut=40 / intra_refresh=0 / rc=crf / mbtree=0 / crf=17.0000 / qcomp=0.60 / qpmin=0:0:0 / qpmax=81:81:81 / qpstep=4 / ip_ratio=1.40 / pb_ratio=1.30 / aq=1:0.80 / aq-sensitivity=10.00 / aq-factor=1.00:1.00:1.00 / aq2=0 / aq3=0
    36. Language                       : Chinese
    37. Default                        : Yes
    38. Forced                         : No
    39. Color range                    : Limited
    40. Matrix coefficients            : BT.709

    41. Audio #1
    42. ID                             : 2
    43. Format                         : AC-3
    44. Format/Info                    : Audio Coding 3
    45. Mode extension                 : CM (complete main)
    46. Format settings, Endianness    : Big
    47. Codec ID                       : A_AC3
    48. Duration                       : 1 h 42 min
    49. Bit rate mode                  : Constant
    50. Bit rate                       : 192 kb/s
    51. Channel(s)                     : 2 channels
    52. Channel positions              : Front: L R
    53. Sampling rate                  : 48.0 kHz
    54. Frame rate                     : 31.250 FPS (1536 spf)
    55. Compression mode               : Lossy
    56. Stream size                    : 141 MiB (4%)
    57. Language                       : Chinese
    58. Default                        : No
    59. Forced                         : No

    60. Audio #2
    61. ID                             : 3
    62. Format                         : AC-3
    63. Format/Info                    : Audio Coding 3
    64. Mode extension                 : CM (complete main)
    65. Format settings, Endianness    : Big
    66. Codec ID                       : A_AC3
    67. Duration                       : 1 h 42 min
    68. Bit rate mode                  : Constant
    69. Bit rate                       : 192 kb/s
    70. Channel(s)                     : 2 channels
    71. Channel positions              : Front: L R
    72. Sampling rate                  : 48.0 kHz
    73. Frame rate                     : 31.250 FPS (1536 spf)
    74. Compression mode               : Lossy
    75. Stream size                    : 141 MiB (4%)
    76. Language                       : Chinese
    77. Default                        : No
    78. Forced                         : No

    79. Text #1
    80. ID                             : 4
    81. Format                         : PGS
    82. Muxing mode                    : zlib
    83. Codec ID                       : S_HDMV/PGS
    84. Codec ID/Info                  : Picture based subtitle format used on BDs/HD-DVDs
    85. Duration                       : 1 h 39 min
    86. Bit rate                       : 10.1 kb/s
    87. Count of elements              : 2542
    88. Stream size                    : 7.22 MiB (0%)
    89. Language                       : Chinese
    90. Default                        : No
    91. Forced                         : No

    92. Text #2
    93. ID                             : 5
    94. Format                         : PGS
    95. Muxing mode                    : zlib
    96. Codec ID                       : S_HDMV/PGS
    97. Codec ID/Info                  : Picture based subtitle format used on BDs/HD-DVDs
    98. Duration                       : 1 h 39 min
    99. Bit rate                       : 10.1 kb/s
    100. Count of elements              : 2542
    101. Stream size                    : 7.19 MiB (0%)
    102. Language                       : Chinese
    103. Default                        : No
    104. Forced                         : No

    复制代码



    购买主题 已有 10 人购买  本主题需向作者支付 500 两金币 才能浏览
  • TA的每日心情
    开心
    24 分钟前
  • 签到天数: 510 天

    [LV.9]以坛为家II

    28

    主题

    813

    帖子

    2万

    积分

    土豪会员

    Rank: 7Rank: 7Rank: 7

    积分
    21177
    金币
    20364 两
    注册时间
    2013-4-10
    在线时间
    403 小时
    发表于 7 天前 | 显示全部楼层
    支持下完整版
  • TA的每日心情
    开心
    半小时前
  • 签到天数: 483 天

    [LV.9]以坛为家II

    0

    主题

    2703

    帖子

    3万

    积分

    土豪会员

    Rank: 7Rank: 7Rank: 7

    积分
    31287
    金币
    28584 两
    注册时间
    2016-7-4
    在线时间
    299 小时
    发表于 7 天前 | 显示全部楼层
    感谢楼主分享
  • TA的每日心情
    擦汗
    2017-12-2 16:34
  • 签到天数: 560 天

    [LV.9]以坛为家II

    147

    主题

    2492

    帖子

    11万

    积分

    土豪会员

    Rank: 7Rank: 7Rank: 7

    积分
    113640
    金币
    111148 两
    注册时间
    2014-12-31
    在线时间
    2172 小时
    发表于 7 天前 | 显示全部楼层
    楼主的帖子实在是写得太好了,不觉明厉啊!
  • TA的每日心情

    前天 09:26
  • 签到天数: 409 天

    [LV.9]以坛为家II

    21

    主题

    2114

    帖子

    11万

    积分

    土豪会员

    Rank: 7Rank: 7Rank: 7

    积分
    118812

    帅哥勋章新手入门勋章

    金币
    116698 两
    注册时间
    2016-4-11
    在线时间
    877 小时
    发表于 6 天前 | 显示全部楼层
    看看大神版本
  • TA的每日心情
    开心
    2017-6-2 21:35
  • 签到天数: 2 天

    [LV.1]初来乍到

    0

    主题

    186

    帖子

    1509

    积分

    注册会员

    Rank: 2

    积分
    1509
    金币
    1323 两
    注册时间
    2017-5-29
    在线时间
    113 小时
    发表于 6 天前 | 显示全部楼层
    谢谢老板,谢谢
  • TA的每日心情
    开心
    昨天 21:15
  • 签到天数: 185 天

    [LV.7]常住居民III

    48

    主题

    401

    帖子

    5586

    积分

    高级会员

    Rank: 4

    积分
    5586

    新手入门勋章帅哥勋章

    金币
    5185 两
    注册时间
    2016-7-16
    在线时间
    117 小时
    发表于 6 天前 | 显示全部楼层
    太6了,大神就是大神
  • TA的每日心情
    开心
    2016-5-5 15:30
  • 签到天数: 15 天

    [LV.4]偶尔看看III

    0

    主题

    1560

    帖子

    2万

    积分

    土豪会员

    Rank: 7Rank: 7Rank: 7

    积分
    27571
    金币
    26011 两
    注册时间
    2015-11-15
    在线时间
    345 小时
    发表于 5 天前 | 显示全部楼层
    谢谢分享!
  • TA的每日心情
    开心
    昨天 09:05
  • 签到天数: 542 天

    [LV.9]以坛为家II

    1

    主题

    875

    帖子

    1万

    积分

    金领会员

    Rank: 6Rank: 6

    积分
    10843
    金币
    9968 两
    注册时间
    2015-4-3
    在线时间
    238 小时
    发表于 5 天前 | 显示全部楼层
    物价越来越高的  168一直都很正常的啊
  • TA的每日心情
    慵懒
    昨天 13:49
  • 签到天数: 517 天

    [LV.9]以坛为家II

    92

    主题

    2113

    帖子

    10万

    积分

    土豪会员

    Rank: 7Rank: 7Rank: 7

    积分
    102193

    新手入门勋章帅哥勋章

    金币
    100079 两
    注册时间
    2015-7-13
    在线时间
    993 小时
    发表于 4 天前 | 显示全部楼层
    谢谢分享这部
    您需要登录后才可以回帖 登录 | 中文注册

    本版积分规则

    影视168论坛·免责声明
    本站仅供网友自由讨论使用,所有个人言论均不代表本站立场,与本站立场无关,本站不会对其內容负任何责任。
    本站内容均经过严格审查筛选,内容健康,如发现违反国家法律法规的內容,请立即联系我们,我们立刻从网站上删除,并致以最深的歉意。
    广而告之:【影视168论坛】已经安全运行
    ©影视168论坛  |  欢迎光临:影视168论坛     
    快速回复 返回顶部 返回列表